Forum Sveta kompjutera

Nazad   Forum Sveta kompjutera > Test Run > Video/TV softver

Video/TV softver Video programi, formati, kodeci, konvertori, DVD/TV softver, satelitski/DVB programi, DivX i sl.

Odgovor
 
Alatke vezane za temu Vrste prikaza
Stara 30.9.2010, 17:33   #1
director
Starosedelac
 
Član od: 13.3.2007.
Poruke: 1.487
Zahvalnice: 173
Zahvaljeno 178 puta na 157 poruka
Slanje poruke preko Skypea korisniku director
Određen forumom .avi ne radi na DVD playeru

Dakle s vremena na vreme mi se desi da poneki .avi neće da se pokrene na mom DVD player-u. Trenutno sam skinuo seriju "The Pacific" i imam taj problem sa 9. serijom. Ostale rade ok.

Sećam se da sam negde našao rešenje da treba da rekompresujem iz .avi u .avi i to mi je pomagalo ranije uz pomoć AVIRecomp programa. Međutim sada to ne pomaže. Zna li neko koji je najčešći razlog ovome ?
director je offline   Odgovor sa citatom ove poruke
Stara 30.9.2010, 21:09   #2
Marko069
Starosedelac
 
Član od: 21.12.2005.
Poruke: 1.223
Zahvalnice: 187
Zahvaljeno 110 puta na 90 poruka
Određen forumom Re: .avi ne radi na dvd player-u

Mozda je problem do rezolucije tj. velika rexolucija Avi-ja.Recimo moj plejer nece da pusti ni jedan avi koji ima rezoluciju vecu od 640x???(sirina nebitna).Tako da ako skinem neki film koji ima vecu rez.moram mu je smanjiti u nekom od programa za obradu ili konvertovanja video(ja koristim Xilisoft Video Converter )Provjeri da li je to u pitanju.
Marko069 je offline   Odgovor sa citatom ove poruke
Stara 1.10.2010, 13:56   #3
starx
Starosedelac
 
Član od: 30.1.2007.
Lokacija: Kragujevac
Poruke: 1.396
Zahvalnice: 341
Zahvaljeno 281 puta na 187 poruka
Određen forumom Re: .avi ne radi na dvd player-u

A koji kodek je taj AVI, moguce je staviti pod avi bilo sta a plejer naravno nema podrsku, hehe nije kao nekada samo stari divx ima svega i svacega
starx je offline   Odgovor sa citatom ove poruke
Stara 2.10.2010, 11:21   #4
director
Starosedelac
 
Član od: 13.3.2007.
Poruke: 1.487
Zahvalnice: 173
Zahvaljeno 178 puta na 157 poruka
Slanje poruke preko Skypea korisniku director
Određen forumom Re: .avi ne radi na dvd player-u

sve seirije su rađene u Xvid 1.1.2

s obzirom da ostalih 9 rade to nije problem.

Imam neku opciju "Disable B-VOPs" kod konvertovanja iz avi u avi. Šta je to konkretno ?
director je offline   Odgovor sa citatom ove poruke
Stara 3.10.2010, 1:43   #5
Stranger2
Veteran
 
Član od: 23.9.2009.
Poruke: 892
Zahvalnice: 597
Zahvaljeno 312 puta na 165 poruka
Određen forumom Re: .avi ne radi na dvd player-u

Hajde najpre pregledaj ovu temu:
http://www.sk.rs/forum/showthread.php?t=57507&page=3

I pogledaj resenja koja su tu navedena. Mozes takodje prekopirati informacije iz MediaInfo-a o tom fajlu pa da vidimo sta je tacno u pitanju. Pise ti u onoj temi kako...
Stranger2 je offline   Odgovor sa citatom ove poruke
Sledeći korisnik se zahvaljuje korisniku Stranger2 na korisnoj poruci:
director (3.10.2010)
Stara 3.10.2010, 19:23   #6
director
Starosedelac
 
Član od: 13.3.2007.
Poruke: 1.487
Zahvalnice: 173
Zahvaljeno 178 puta na 157 poruka
Slanje poruke preko Skypea korisniku director
Određen forumom Re: .avi ne radi na dvd player-u

Ok, evo iz mediainfo podataka :

Kod:
General
Complete name                    : D:\Share\The Pacific (HBO Miniseries)\09 - Okinawa.avi
Format                           : AVI
Format/Info                      : Audio Video Interleave
File size                        : 681 MiB
Duration                         : 56mn 35s
Overall bit rate                 : 1 683 Kbps

Video
ID                               : 0
Format                           : MPEG-4 Visual
Format profile                   : Advanced Simple@L5
Format settings, BVOP            : No
Format settings, QPel            : No
Format settings, GMC             : No warppoints
Format settings, Matrix          : Default (MPEG)
Codec ID                         : XVID
Codec ID/Hint                    : XviD
Duration                         : 56mn 35s
Bit rate                         : 1 482 Kbps
Width                            : 720 pixels
Height                           : 400 pixels
Display aspect ratio             : 16:9
Frame rate                       : 29.970 fps
Color space                      : YUV
Chroma subsampling               : 4:2:0
Bit depth                        : 8 bits
Scan type                        : Progressive
Bits/(Pixel*Frame)               : 0.172
Stream size                      : 600 MiB (88%)
Writing library                  : XviD 1.1.2 (UTC 2006-11-01)

Audio
ID                               : 1
Format                           : MPEG Audio
Format version                   : Version 1
Format profile                   : Layer 3
Codec ID                         : 55
Codec ID/Hint                    : MP3
Duration                         : 56mn 35s
Bit rate mode                    : Constant
Bit rate                         : 192 Kbps
Channel(s)                       : 2 channels
Sampling rate                    : 44.1 KHz
Stream size                      : 77.7 MiB (11%)
Alignment                        : Split accross interleaves
Interleave, duration             : 67 ms (2.00 video frames)
Writing library                  : LAMELAME_MAJOR_VERSI
a evo jedne od ostalih serija koje rade ok, možda pomogne pošto ja ne vidim razlike :

Kod:
General
Complete name                    : D:\Share\The Pacific (HBO Miniseries)\10 - Home.avi
Format                           : AVI
Format/Info                      : Audio Video Interleave
File size                        : 745 MiB
Duration                         : 1h 3mn
Overall bit rate                 : 1 634 Kbps

Video
ID                               : 0
Format                           : MPEG-4 Visual
Format profile                   : Advanced Simple@L5
Format settings, BVOP            : No
Format settings, QPel            : No
Format settings, GMC             : No warppoints
Format settings, Matrix          : Default (MPEG)
Codec ID                         : XVID
Codec ID/Hint                    : XviD
Duration                         : 1h 3mn
Bit rate                         : 1 434 Kbps
Width                            : 720 pixels
Height                           : 400 pixels
Display aspect ratio             : 16:9
Frame rate                       : 29.970 fps
Color space                      : YUV
Chroma subsampling               : 4:2:0
Bit depth                        : 8 bits
Scan type                        : Progressive
Bits/(Pixel*Frame)               : 0.166
Stream size                      : 653 MiB (88%)
Writing library                  : XviD 1.1.2 (UTC 2006-11-01)

Audio
ID                               : 1
Format                           : MPEG Audio
Format version                   : Version 1
Format profile                   : Layer 3
Codec ID                         : 55
Codec ID/Hint                    : MP3
Duration                         : 1h 3mn
Bit rate mode                    : Constant
Bit rate                         : 192 Kbps
Channel(s)                       : 2 channels
Sampling rate                    : 44.1 KHz
Stream size                      : 87.5 MiB (12%)
Alignment                        : Split accross interleaves
Interleave, duration             : 67 ms (2.00 video frames)
Writing library                  : LAMELAME_MAJOR_VERSI
pada mi na pamet jedna stvar pa čisto da proverim. da li je moguće da je fajl oštećen tako da na PC-ju radi a na player-u neće ?
director je offline   Odgovor sa citatom ove poruke
Odgovor

Bookmarks sajtovi

Alatke vezane za temu
Vrste prikaza

Vaš status
Ne možete postavljati teme
Ne možete odgovarati na poruke
Ne možete slati priloge uz poruke
Ne možete prepravljati svoje poruke

BB kod: uključeno
Smajliji: uključeno
[IMG] kod: uključeno
HTML kod: isključeno


Slične teme
tema temu započeo forum Odgovora Poslednja poruka
Avioni Dr Zoidberg Brbljaonica 3931 17.4.2022 21:11
Vista (instalacija) GeForce Operativni sistemi 29 9.5.2010 9:25
Problem prilikom povezivanja TV-a na komp... Razial Video/TV softver 3 14.4.2009 22:24
Torrent i zauzeće prostora na hard disku Cole Nosači podataka 7 22.5.2008 13:15
M Audio Audiophile USB na laptopu zuji na desktopu radi normalno Devet1 Zvuk na računaru 0 12.11.2007 23:55


Sva vremena su po Griniču +2 h. Sada je 13:04.


Powered by vBulletin® verzija 3.8.7
Copyright ©2000–2024, vBulletin Solutions, Inc.
Hosted by Beograd.com